HeroWarez.org » Tutorials » Udemy - Your Ultimate Blueprint to Sell Products Online (2019)

Udemy - Your Ultimate Blueprint to Sell Products Online (2019)

Udemy - Your Ultimate Blueprint to Sell Products Online (2019)
WEBRip | English | MP4 | 1280 x 720 | AVC ~3000 Kbps | 30 fps
AAC | 128 Kbps | 44.1 KHz | 2 channels | ~1 hour | 1.12 GB
Genre: eLearning Video / Business, Sales, Marketing
Sell products online & know the secrets for online sales. Start an online business from your home, sell anything online.


"Udemy - Your Ultimate Blueprint to Sell Products Online (2019)"

HI-SPEED DOWNLOAD
Free 300 GB with Full DSL-Broadband Speed!



Udemy - Your Ultimate Blueprint to Sell Products Online (2019)

Udemy - Your Ultimate Blueprint to Sell Products Online (2019)
WEBRip | English | MP4 | 1280 x 720 | AVC ~3000 Kbps | 30 fps
AAC | 128 Kbps | 44.1 KHz | 2 channels | ~1 hour | 1.12 GB
Genre: eLearning Video / Business, Sales, Marketing
Sell products online & know the secrets for online sales. Start an online business from your home, sell anything online.


I believe that either you want to sell products or services online or start your own online business from your home.

Now, I have created this super course which will take you on a rollercoaster ride on how an online business actually works and how you can start your own.

Let me tell you that this course is not for everyone but, if you're serious with creating a long-term business, you are going to make one of the best investments in yourself. The course includes everything you need to know to prepare your mindset on selling physical / digital products online along with me standing beside on your every step.

You're totally covered by a 30-day Refund Policy by Udemy so there's nothing to lose here, but only learn about the secrets which you might not know.

Click the Take this Course button & let's begin this journey together.

What you'll learn:

eCommerce
Online Sales
Online Business
Online Store

also You can find my other helpful
https://rapu.world/search/?category_slug=&query=Business&language=&age=year&author=ParRus&search=1
Business-posts

General
Complete name : 3. The Power of Scarcity & Flash Sales..mp4
Format : MPEG-4
Format profile : Base Media
Codec ID : isom (isom/iso2/avc1/mp41)
File size : 52.5 MiB
Duration : 2 min 21 s
Overall bit rate : 3 107 kb/s
Writing application : Lavf58.12.100

Video
ID : 1
Format : AVC
Format/Info : Advanced Video Codec
Format profile : [email protected]
Format settings : CABAC / 4 Ref Frames
Format settings, CABAC : Yes
Format settings, RefFrames : 4 frames
Codec ID : avc1
Codec ID/Info : Advanced Video Coding
Duration : 2 min 21 s
Bit rate : 3 000 kb/s
Width : 1 280 pixels
Height : 720 pixels
Display aspect ratio : 16:9
Frame rate mode : Constant
Frame rate : 30.000 FPS
Color space : YUV
Chroma subsampling : 4:2:0
Bit depth : 8 bits
Scan type : Progressive
Bits/(Pixel*Frame) : 0.109
Stream size : 50.2 MiB (96%)
Writing library : x264 core 148
Encoding settings : cabac=1 / ref=3 / deblock=1:-1:-1 / analyse=0x1:0x111 / me=umh / subme=6 / psy=1 / psy_rd=1.00:0.15 / mixed_ref=1 / me_range=16 / chroma_me=1 / trellis=1 / 8x8dct=0 / cqm=0 / deadzone=21,11 / fast_pskip=1 / chroma_qp_offset=-3 / threads=22 / lookahead_threads=3 / sliced_threads=0 / nr=0 / decimate=1 / interlaced=0 / bluray_compat=0 / constrained_intra=0 / bframes=3 / b_pyramid=2 / b_adapt=1 / b_bias=0 / direct=1 / weightb=1 / open_gop=0 / weightp=2 / keyint=60 / keyint_min=6 / scenecut=0 / intra_refresh=0 / rc_lookahead=60 / rc=cbr / mbtree=1 / bitrate=3000 / ratetol=1.0 / qcomp=0.60 / qpmin=0 / qpmax=69 / qpstep=4 / vbv_maxrate=3000 / vbv_bufsize=6000 / nal_hrd=none / filler=0 / ip_ratio=1.40 / aq=1:1.00

Audio
ID : 2
Format : AAC
Format/Info : Advanced Audio Codec
Format profile : LC
Codec ID : mp4a-40-2
Duration : 2 min 21 s
Bit rate mode : Constant
Bit rate : 128 kb/s
Channel(s) : 2 channels
Channel positions : Front: L R
Sampling rate : 44.1 kHz
Frame rate : 43.066 FPS (1024 SPF)
Compression mode : Lossy
Stream size : 2.16 MiB (4%)
Default : Yes
Alternate group : 1

Screenshots

Udemy - Your Ultimate Blueprint to Sell Products Online (2019)

Udemy - Your Ultimate Blueprint to Sell Products Online (2019)

Udemy - Your Ultimate Blueprint to Sell Products Online (2019)
DOWNLOAD
(Buy premium account for maximum speed and resuming ability)






P A S S W O R D    P R O T E C T E D ! 
PASSWORD WILL BE PUBLISHED HERE TOMORROW!
 PLEASE ADD PAGE TO YOUR FAVORITS

Free 300 GB with 10 GB High-Speed(No Password BACKUP)


Hide Your IP & Protect Your Privacy!
Get Your 15 Day Free Trial Now.

Bookmark this page

Tags: Udemy, Your, Ultimate, Blueprint, Sell, Products, Online