HeroWarez.org » Tutorials » Workshop of Charles Neil - Making Large Panels (New Links)
Workshop of Charles Neil ???? Making Large Panels (New Links)

Workshop of Charles Neil ????? Making Large Panels
MP4 | AVC 930kbps | English | 624x416 | 29.97fps | 1h 32mins | AAC stereo 110kbps | 688 MB
Genre: Video Training



Charles Neil takes you through grain matching, ripping, gluing, surfacing and creating large panels for case sides, table tops and more. A lot of information about panel making packed into a 92 minute visit with Charles Neil at his workshop.


"Workshop of Charles Neil - Making Large Panels (New Links)"

HI-SPEED DOWNLOAD
Free 300 GB with Full DSL-Broadband Speed!



Workshop of Charles Neil ???? Making Large Panels (New Links)

Workshop of Charles Neil ????? Making Large Panels
MP4 | AVC 930kbps | English | 624x416 | 29.97fps | 1h 32mins | AAC stereo 110kbps | 688 MB
Genre: Video Training



Charles Neil takes you through grain matching, ripping, gluing, surfacing and creating large panels for case sides, table tops and more. A lot of information about panel making packed into a 92 minute visit with Charles Neil at his workshop.

Mediainfo:

Format : MPEG-4
Format profile : Base Media / Version 2
Codec ID : mp42
File size : 688 MiB
Duration : 1h 32mn
Overall bit rate : 1 044 Kbps
Encoded date : UTC 2010-02-25 19:14:37
Tagged date : UTC 2010-02-26 01:40:48
Video #1
ID : 1
Format : AVC
Format/Info : Advanced Video Codec
Format profile : [email protected]
Format settings, CABAC : Yes
Format settings, ReFrames : 2 frames
Codec ID : avc1
Codec ID/Info : Advanced Video Coding
Duration : 1h 32mn
Bit rate mode : Variable
Bit rate : 930 Kbps
Maximum bit rate : 3 079 Kbps
Width : 624 pixels
Height : 416 pixels
Display aspect ratio : 4:3
Frame rate mode : Constant
Frame rate : 29.970 fps
Standard : NTSC
Resolution : 24 bits
Colorimetry : 4:2:0
Scan type : Progressive
Bits/(Pixel*Frame) : 0.119
Stream size : 613 MiB (89%)
Encoded date : UTC 2010-02-25 19:14:37
Tagged date : UTC 2010-02-26 01:40:48
Audio #2
ID : 2
Format : AAC
Format/Info : Advanced Audio Codec
Format version : Version 4
Format profile : LC
Format settings, SBR : No
Codec ID : 40
Duration : 1h 32mn
Bit rate mode : Variable
Bit rate : 110 Kbps
Maximum bit rate : 122 Kbps
Channel(s) : 2 channels
Channel positions : L R
Sampling rate : 48.0 KHz
Resolution : 16 bits
Stream size : 72.5 MiB (11%)
Language : English
Encoded date : UTC 2010-02-25 19:14:37
Tagged date : UTC 2010-02-26 01:40:48


Workshop of Charles Neil ???? Making Large Panels (New Links)



Download:


http://extabit.com/file/2dvhs0ei91j0e/Workshop_of_Charles_Neil_-_Making_Large_Panels.part1.rar
http://extabit.com/file/2dvhs0ei91ixq/Workshop_of_Charles_Neil_-_Making_Large_Panels.part2.rar
http://extabit.com/file/2dvhs0ei91iym/Workshop_of_Charles_Neil_-_Making_Large_Panels.part3.rar
http://extabit.com/file/2dvhs0ei91j2m/Workshop_of_Charles_Neil_-_Making_Large_Panels.part4.rar
http://extabit.com/file/2dvhs0ei6kojy/Workshop_of_Charles_Neil_-_Making_Large_Panels.part5.rar
http://extabit.com/file/2dvhs0ei91j26/Workshop_of_Charles_Neil_-_Making_Large_Panels.part6.rar
http://extabit.com/file/2dvhs0ei91m66/Workshop_of_Charles_Neil_-_Making_Large_Panels.part7.rar


Mirror:

http://turbobit.net/wyzeq2uv1b2c/Workshop_of_Charles_Neil_-_Making_Large_Panels.part1.rar.html
http://turbobit.net/rbhbslchgmaj/Workshop_of_Charles_Neil_-_Making_Large_Panels.part2.rar.html
http://turbobit.net/2vg0kztdr4ni/Workshop_of_Charles_Neil_-_Making_Large_Panels.part3.rar.html
http://turbobit.net/ix2ntrklsdli/Workshop_of_Charles_Neil_-_Making_Large_Panels.part4.rar.html
http://turbobit.net/xb11nzmueyvn/Workshop_of_Charles_Neil_-_Making_Large_Panels.part5.rar.html
http://turbobit.net/kk41lde61ccl/Workshop_of_Charles_Neil_-_Making_Large_Panels.part6.rar.html
http://turbobit.net/swyhm8l2phuw/Workshop_of_Charles_Neil_-_Making_Large_Panels.part7.rar.html

P A S S W O R D    P R O T E C T E D ! 
PASSWORD WILL BE PUBLISHED HERE TOMORROW!
 PLEASE ADD PAGE TO YOUR FAVORITS

Free 300 GB with 10 GB High-Speed(No Password BACKUP)


Hide Your IP & Protect Your Privacy!
Get Your 15 Day Free Trial Now.

Bookmark this page

Tags: Format, Codec, Charles, Video, Duration, profile, Encoded, 191437, settings, Advanced, 20100226, Tagged, 20100225, 014048, English, 930kbps, Panels, Workshop, 2997fps, 32mins